0 просмотров
Рейтинг статьи
1 звезда2 звезды3 звезды4 звезды5 звезд
Загрузка...

Телепередача «Полигон», серия «Танк Т-80У»

Полигон. Танк Т-80У

Для просмотра онлайн кликните на видео ⤵

Т-80. Летающий. Арктический. Часть-1 Подробнее

УПРАВЛЕНИЕ, ВНУТРИ ТАНКА Т-80У танк. ГАЗОТУРБИННЫЙ/ Иван Зенкевич ПРО Подробнее

Тест-драйв танка Т-80: 45 км/час на полигоне Подробнее

Видео с испытаниями обстрелом танка Т-80УД из танка Т-80У Подробнее

Подборка выстрелов из танков Т-90 и Т-80 Подробнее

Т-80У БЕРИ И ИМБУЙ в War Thunder Подробнее

Как это происходит? T-90 Подробнее

Танк Т-72 ОБАЛДЕННО поставил Дымовую завесу. Полигон Алабино Подробнее

Испытания танков т 72 т 80 уникальная видео как шведы испытывали советские танки Подробнее

Основной танк Т-80 Подробнее

ЗАГЛОХ ТАНК Т-80.ТАНКИСТЫ ДАЛИ ПРИКУРИТЬ. ПОЛИГОН АЛАБИНО «АрМИ-2019» Танковый биатлон. Подробнее

T-80 MBT Soviet Army (East Germany) Подробнее

ПОЛИГОН #132: обзор Т-72А / War Thunder Подробнее

Т-80У НАПРЯГАЕМ ТАНКИ НАТО в War Thunder | ОБЗОР Подробнее

Гонки танков разных эпох Подробнее

Малоизвестные факты об одном из лучших танков русских : танке Т-80(объект 219сп2). Подробнее

Полигон. Танк Т-80У

Для просмотра онлайн кликните на видео ⤵

Т-80. Летающий. Арктический. Часть-1 Подробнее

УПРАВЛЕНИЕ, ВНУТРИ ТАНКА Т-80У танк. ГАЗОТУРБИННЫЙ/ Иван Зенкевич ПРО Подробнее

Видео с испытаниями обстрелом танка Т-80УД из танка Т-80У Подробнее

Тест-драйв танка Т-80: 45 км/час на полигоне Подробнее

Подборка выстрелов из танков Т-90 и Т-80 Подробнее

Читать еще:  Передача "Военная приемка", серия "Космос специального назначения"

Как это происходит? T-90 Подробнее

Т-80У БЕРИ И ИМБУЙ в War Thunder Подробнее

Танк Т-72 ОБАЛДЕННО поставил Дымовую завесу. Полигон Алабино Подробнее

Испытания танков т 72 т 80 уникальная видео как шведы испытывали советские танки Подробнее

Стрельбы Т90А. Полигон Прудбой Подробнее

T-80 MBT Soviet Army (East Germany) Подробнее

ЗАГЛОХ ТАНК Т-80.ТАНКИСТЫ ДАЛИ ПРИКУРИТЬ. ПОЛИГОН АЛАБИНО «АрМИ-2019» Танковый биатлон. Подробнее

Основной танк Т-80 Подробнее

Малоизвестные факты об одном из лучших танков русских : танке Т-80(объект 219сп2). Подробнее

Т-80У НАПРЯГАЕМ ТАНКИ НАТО в War Thunder | ОБЗОР Подробнее

ПОЛИГОН #132: обзор Т-72А / War Thunder Подробнее

Полигон. Танк Т-80У (2015.02.15) SATRip

Полигон. Танк Т-80У (2015.02.15) SATRip Телекомпания: Россия 2
Жанр: Телепередача

Описание:
Одна из самых ожидаемых премьер этого телесезона — программа о современных военных разработках, новейших видах вооружения, средствах ведения боя и индивидуальной защиты!
Российская армия сегодня – это не только автомат Калашникова и самолеты Сухого. Инновационные разработки военно-промышленного комплекса открывают практически безграничные возможности. Однако гражданским лицам о них известно крайне мало. Чтобы восполнить этот пробел, ведущие телеканала «Россия 2″ Иван Лебедев и Дмитрий Задорожный отправляются на настоящие военные полигоны.
В «боевых условиях» они попытаются выяснить, как устроены и работают современные бронеавтомобили и снайперские винтовки, ударные вертолеты и боевые корабли. С любознательностью новобранцев они будут рассматривать каждый винтик и интересоваться его предназначением, а также проводить тест-драйвы, ставить рискованные опыты и бесшабашные эксперименты.
В этой программе не будет кирзовых сапог и строевой подготовки. Зато будет все то, о чем каждый настоящий мужчина мечтает с раннего детства – много оружия и грозной военной техники.

Режиссёр: Максим Иванов, Илья Яковлев
Ведущий: Иван Лебедев

Читать еще:  Телепередача "Полигон", серия "ТОР"

00:25:52
Качество видео: SATRip

Видеокодек: XVID
Битрейт видео:

Формат : AVI
Формат/Информация : Audio Video Interleave
Размер файла : 370 Мбайт
Продолжительность : 25 м.
Общий поток : 1997 Кбит/сек
Программа кодирования : VirtualDubMod 1.5.10.3 | www.virtualdub-fr.org || (build 2550/release)
Библиотека кодирования : VirtualDubMod build 2550/release

Видео
Идентификатор : 0
Формат : MPEG-4 Visual
Профиль формата : Advanced Simple@L5
Параметр BVOP формата : 1
Параметр QPel формата : Нет
Параметр GMC формата : Без точки перехода
Параметр матрицы формата : Выборочная
Идентификатор кодека : XVID
Идентификатор кодека/Подсказка : XviD
Продолжительность : 25 м.
Битрейт : 1796 Кбит/сек
Ширина : 720 пикселей
Высота : 400 пикселей
Соотношение сторон : 16:9
Частота кадров : 25,000 кадров/сек
Цветовое пространство : YUV
Субдискретизация насыщенности : 4:2:0
Битовая глубина : 8 бит
Тип развёртки : Прогрессивная
Метод сжатия : С потерями
Бит/(Пиксели*Кадры) : 0.249
Размер потока : 332 Мбайт (90%)
Библиотека кодирования : XviD 73

Аудио
Идентификатор : 1
Формат : AC-3
Формат/Информация : Audio Coding 3
Расширение режима : CM (complete main)
Параметр Endianness формата : Big
Идентификатор кодека : 2000
Продолжительность : 25 м.
Вид битрейта : Постоянный
Битрейт : 192 Кбит/сек
Каналы : 2 канала
Расположение каналов : Front: L R
Частота : 48,0 КГц
Битовая глубина : 16 бит
Метод сжатия : С потерями
Размер потока : 35,5 Мбайт (10%)
Выравнивание : Разделение по промежуткам
Продолжительность промежутка : 40 мс. (1,00 видеокадр)
Время предзагрузки промежутка : 500 мс.

Т-80У («Объект 219АС») — основной боевой танк

Сообщение [Страница 1 из 1]

1 Т-80У («Объект 219АС») — основной боевой танк в 13/12/2015, 06:30

Rotor

Т-80У («Объект 219АС») — основной боевой танк.

Танк Т-80У («Объект 219АС») был создан под руководством главного конструктора Н.С.Попова на основе задела по опытному танку Т-80А («Объект 219А») в КБ-3 ПО «Кировский завод», г. Ленинград.

Танк Т-80У («Объект 219АС») был принят на вооружение 27 ноября 1984 г.

Серийное производство:
— Харьковский завод им. В.А.Малышева — Постановление Совета Министров СССР от 02.09.1985.,
— ПО «Кировский завод» — Постановление МОП от 12.07.1987.,
— Омский завод транспортного машиностроения — решение МОП от 16.05.1989.

Читать еще:  Телепередача "Полигон", серия "Спрут"

Дизельный Т-80У (или часто называемый Т-80УД («Объект 478Б»)) был принят в серийное производство в 1985 г., на вооружение — в 1992 г.

Серийное производство газотурбинных танков Т-80У («Объект 219АС») было начато на Харьковском заводе им. В.А.Малышева и шло до замены в 1985 г. на дизельный варианта танка — Т-80УД («Объект 478Б»).

Харьковские Т-80У («Объект 219АС») выпускались с навесной динамической защитой (НДЗ) «Контакт-1» (по некоторым данным первые 5 машины были без НДЗ). Ещё у харьковских газотурбинных Т-80У («Объект 219АС»), которых выпущено по разным данным от 33 до 45 штук, зенитно-пулемётная установка (ЗПУ) командира была закрытого типа. Такую же ЗПУ впоследствии получил и Т-80УД («Объект 478Б»). Собственно, закрытая ЗПУ — одна из фирменных черт харьковских танков, в том числе машин серий Т-64А, Б, Б1, БВ и т.д.

Ленинградские и омские Т-80У («Объект 219АС») имели ЗПУ открытого типа.

Танк Т-80У («Объект 219АС») с навесной динамической защитой (НДЗ) «Контакт-1» выпуска Харьковского завода им. В.А.Малышева, Музей БТВТ в Кубинке, 2015 г.

Имеет серийный номер У12ЕТ008:
У — 1984 год выпуска;
12 — в декабре;
ЕТ — Харьковский завод им. В.А.Малышева;
008 — номер:





http://agtf.ru/archives/3778

Последний раз редактировалось: Rotor (5/4/2019, 20:35), всего редактировалось 1 раз(а)

Ссылка на основную публикацию
Статьи c упоминанием слов:
Adblock
detector